<?xml version="1.0" standalone="no"?>
<!DOCTYPE svg PUBLIC "-//W3C//DTD SVG 1.1//EN" "http://www.w3.org/Graphics/SVG/1.1/DTD/svg11.dtd" >
<!--
2013-9-15: Created.
-->
<svg xmlns="http://www.w3.org/2000/svg">
<metadata>
Created by FontForge 20120731 at Sun Sep 15 15:49:35 2013
 By Tyler Wanlass
Created by Tyler Wanlass with FontForge 2.0 (http://fontforge.sf.net)
</metadata>
<defs>
<font id="picto-foundry-emotions" horiz-adv-x="512" >
  <font-face 
    font-family="picto-foundry-emotions"
    font-weight="500"
    font-stretch="normal"
    units-per-em="512"
    panose-1="2 0 6 3 0 0 0 0 0 0"
    ascent="448"
    descent="-64"
    bbox="0 -64 512.07 448.367"
    underline-thickness="25.6"
    underline-position="-51.2"
    unicode-range="U+F100-F133"
  />
    <missing-glyph />
    <glyph glyph-name="uniF100" unicode="&#xf100;" 
d="M117 154c1 -4 29 -104 140 -104s138 100 139 104l18 -4c0 -1 -32 -118 -157 -118s-158 117 -158 118zM184 186c-26 0 -46 20 -49 45h18c2 -15 15 -27 31 -27s29 12 31 27h19c-3 -25 -24 -45 -50 -45zM332 186c-26 0 -46 20 -49 45h18c2 -15 15 -27 31 -27s29 12 31 27h19
c-3 -25 -24 -45 -50 -45zM512 349c0 -14 -12 -25 -33 -35c19 -36 30 -77 30 -120c0 -140 -115 -255 -255 -255s-254 115 -254 255c0 44 11 85 31 121c-19 9 -30 21 -30 34c0 26 46 45 111 56c41 27 89 43 142 43c52 0 101 -15 141 -42c68 -11 117 -30 117 -57zM494 349
c0 9 -23 22 -67 32c16 -15 30 -32 42 -51c16 7 25 14 25 19zM451 323c-42 64 -115 107 -197 107s-154 -43 -196 -106c38 -13 104 -24 198 -24c91 0 156 11 195 23zM19 349c0 -5 7 -12 21 -18c11 18 26 34 41 48c-40 -10 -62 -21 -62 -30zM490 194c0 41 -11 79 -29 113
c-49 -17 -127 -25 -205 -25c-79 0 -159 9 -208 26c-19 -34 -30 -72 -30 -114c0 -130 106 -236 236 -236s236 106 236 236z" />
    <glyph glyph-name="uniF101" unicode="&#xf101;" 
d="M150 237c0 7 3 13 7 18l-32 22l11 15l40 -27h2c15 0 28 -13 28 -28s-13 -28 -28 -28s-28 13 -28 28zM256 448c141 0 256 -115 256 -256s-115 -256 -256 -256s-256 115 -256 256s115 256 256 256zM256 -45c131 0 237 106 237 237s-106 237 -237 237s-237 -106 -237 -237
s106 -237 237 -237zM326 209c-15 0 -28 13 -28 28s13 28 28 28h2l40 27l11 -15l-32 -22c4 -5 7 -11 7 -18c0 -15 -13 -28 -28 -28zM363 140c13 0 25 -9 35 -17c7 -6 14 -12 19 -12v-17c-11 0 -21 7 -30 15c-8 7 -17 14 -24 14s-16 -7 -24 -14c-10 -8 -20 -16 -32 -16
c-11 0 -22 7 -32 15c-9 7 -19 15 -28 15s-18 -8 -26 -15c-9 -8 -17 -15 -27 -15s-17 7 -24 14c-8 8 -16 16 -27 16s-17 -7 -24 -15c-6 -7 -13 -15 -24 -15v17c3 0 7 4 11 9c8 9 18 21 37 21s31 -12 39 -21c4 -5 9 -9 12 -9c4 0 10 6 16 11c10 9 21 19 37 19
c15 0 28 -9 39 -18c8 -6 15 -12 21 -12s13 7 21 13c11 9 22 17 35 17z" />
    <glyph glyph-name="uniF102" unicode="&#xf102;" 
d="M119 92v19h274v-19h-274zM150 237c0 7 3 13 7 18l-32 22l11 15l40 -27h2c15 0 28 -13 28 -28s-13 -28 -28 -28s-28 13 -28 28zM256 448c141 0 256 -115 256 -256s-115 -256 -256 -256s-256 115 -256 256s115 256 256 256zM256 -45c131 0 237 106 237 237
s-106 237 -237 237s-237 -106 -237 -237s106 -237 237 -237zM326 209c-15 0 -28 13 -28 28s13 28 28 28h2l40 27l11 -15l-32 -22c4 -5 7 -11 7 -18c0 -15 -13 -28 -28 -28z" />
    <glyph glyph-name="uniF103" unicode="&#xf103;" 
d="M140 42c0 62 45 100 272 100v-19c-254 0 -254 -51 -254 -81h-18zM182 193c-26 0 -47 20 -50 45h18c2 -15 16 -27 32 -27s29 12 31 27h19c-3 -25 -24 -45 -50 -45zM330 193c-26 0 -47 20 -50 45h19c2 -15 15 -27 31 -27s30 12 32 27h18c-3 -25 -24 -45 -50 -45zM256 448
c141 0 256 -115 256 -256s-115 -256 -256 -256s-256 115 -256 256s115 256 256 256zM256 -45c131 0 237 106 237 237s-106 237 -237 237s-237 -106 -237 -237s106 -237 237 -237z" />
    <glyph glyph-name="uniF104" unicode="&#xf104;" 
d="M256 448c141 0 256 -115 256 -256s-115 -256 -256 -256s-256 115 -256 256s115 256 256 256zM256 -45c131 0 237 106 237 237s-106 237 -237 237s-237 -106 -237 -237s106 -237 237 -237zM156 243c0 19 9 28 28 28s28 -9 28 -28s-9 -28 -28 -28s-28 9 -28 28zM305 243
c0 19 9 28 28 28s28 -9 28 -28s-9 -28 -28 -28s-28 9 -28 28zM135 53c0 62 45 99 272 99v-18c-254 0 -254 -51 -254 -81h-18z" />
    <glyph glyph-name="uniF105" unicode="&#xf105;" 
d="M494 285c11 -29 18 -60 18 -93c0 -141 -115 -256 -256 -256s-256 115 -256 256c0 33 7 64 18 93h-18v19h26c42 85 129 144 230 144s188 -59 230 -144h26v-19h-18zM256 429c-90 0 -169 -50 -209 -125h418c-40 75 -119 125 -209 125zM256 -45c131 0 237 106 237 237
c0 33 -7 64 -19 93h-19v0c0 -58 -28 -105 -86 -105s-105 47 -105 105v0h-14v0c0 -58 -47 -105 -105 -105s-86 47 -86 105v0h-21c-12 -29 -19 -60 -19 -93c0 -131 106 -237 237 -237zM259 48c111 0 139 91 140 95l18 -5c0 -1 -32 -109 -158 -109c-66 0 -105 29 -127 54
c-24 27 -32 54 -32 55l18 5c1 -4 30 -95 141 -95z" />
    <glyph glyph-name="uniF106" unicode="&#xf106;" 
d="M256 448c141 0 256 -115 256 -256s-115 -256 -256 -256s-256 115 -256 256s115 256 256 256zM256 -45c131 0 237 106 237 237s-106 237 -237 237s-237 -106 -237 -237s106 -237 237 -237zM257 29c111 0 139 92 140 96l17 -6c0 -1 -31 -109 -157 -109
c-66 0 -106 30 -128 55c-24 27 -31 53 -31 54l17 6c1 -4 31 -96 142 -96zM164 147c0 28 -80 63 -80 108c0 25 16 49 41 49c11 0 25 -4 39 -17c12 13 24 18 35 18c24 0 45 -24 45 -50c0 -46 -79 -80 -80 -108zM110 278c-5 -6 -8 -15 -8 -23c0 -16 23 -36 41 -52
c8 -7 15 -14 21 -20c6 6 13 13 20 19c19 17 41 36 41 53c0 16 -13 31 -26 31c-9 0 -16 -7 -21 -12l-13 -14l-14 13c-9 8 -18 13 -26 13c-7 0 -12 -4 -15 -8zM395 305c24 0 44 -24 44 -50c0 -46 -79 -80 -80 -108c0 28 -80 63 -80 108c0 25 17 49 42 49c11 0 24 -4 38 -17
c12 13 25 18 36 18zM380 202c19 17 41 36 41 53c0 16 -13 31 -26 31c-9 0 -17 -7 -22 -12l-12 -14l-14 13c-9 8 -18 13 -26 13c-7 0 -13 -4 -16 -8c-5 -6 -7 -15 -7 -23c0 -16 22 -36 40 -52c8 -7 15 -14 21 -20c6 6 14 13 21 19z" />
    <glyph glyph-name="uniF107" unicode="&#xf107;" 
d="M259 167c61 0 109 -31 109 -70s-48 -69 -109 -69s-109 30 -109 69s48 70 109 70zM256 448c141 0 256 -115 256 -256s-115 -256 -256 -256s-256 115 -256 256s115 256 256 256zM256 -45c131 0 237 106 237 237s-106 237 -237 237s-237 -106 -237 -237s106 -237 237 -237z
M231 262c0 7 3 13 7 18h-51v19h143v-19h-51c4 -5 8 -11 8 -18c0 -15 -13 -28 -28 -28s-28 13 -28 28z" />
    <glyph glyph-name="uniF108" unicode="&#xf108;" 
d="M256 448c141 0 256 -115 256 -256s-115 -256 -256 -256s-256 115 -256 256s115 256 256 256zM256 -45c131 0 237 106 237 237s-106 237 -237 237s-237 -106 -237 -237s106 -237 237 -237zM119 90v19h274v-19h-274zM137 190v19h82v-19h-82zM286 190v19h82v-19h-82z" />
    <glyph glyph-name="uniF109" unicode="&#xf109;" 
d="M150 46c0 62 46 100 273 100v-19c-254 0 -254 -51 -254 -81h-19zM256 448c141 0 256 -115 256 -256s-115 -256 -256 -256s-256 115 -256 256s115 256 256 256zM256 -45c131 0 237 106 237 237s-106 237 -237 237s-237 -106 -237 -237s106 -237 237 -237zM145 216l-5 18
l78 24l5 -18zM289 240l5 18l78 -24l-5 -18z" />
    <glyph glyph-name="uniF10A" unicode="&#xf10a;" horiz-adv-x="508" 
d="M369 139c19 17 23 32 23 36h18c0 -11 -7 -30 -29 -49c-28 -25 -81 -52 -180 -52c-21 0 -45 1 -70 4l2 18c146 -15 211 20 236 43zM149 232c0 7 2 13 6 18l-31 21l10 15l40 -27h2c15 0 27 -12 27 -27s-12 -28 -27 -28s-27 13 -27 28zM322 204c-15 0 -28 13 -28 28
s13 27 28 27h1l40 27l10 -15l-31 -21c4 -5 7 -11 7 -18c0 -15 -12 -28 -27 -28zM507 440c6 -63 -28 -105 -41 -119c24 -39 38 -84 38 -133c0 -139 -112 -252 -251 -252s-252 113 -252 252c0 50 14 96 39 135c-14 15 -44 56 -39 117c0 3 2 6 5 7s7 1 10 -1
c45 -40 88 -44 105 -44c38 23 84 37 132 37s93 -14 131 -37c14 0 61 2 108 44c3 2 6 2 9 1s6 -4 6 -7zM489 420c-31 -23 -60 -31 -81 -34c18 -14 34 -31 48 -49c11 13 31 42 33 83zM18 420c2 -40 22 -69 33 -82c13 18 29 34 47 48c-21 3 -50 12 -80 34zM253 -46
c129 0 233 105 233 234c0 83 -43 155 -108 196l-1 1v0c-36 23 -78 36 -124 36c-45 0 -87 -13 -123 -35l1 -1s-2 -1 -4 -1c-65 -42 -108 -114 -108 -196c0 -129 105 -234 234 -234z" />
    <glyph glyph-name="uniF10B" unicode="&#xf10b;" 
d="M119 81v19h274v-19h-274zM182 193c-26 0 -48 20 -51 45h19c2 -15 16 -27 32 -27s29 12 31 27h19c-3 -25 -24 -45 -50 -45zM330 193c-26 0 -47 20 -50 45h19c2 -15 15 -27 31 -27s30 12 32 27h18c-3 -25 -24 -45 -50 -45zM256 448c141 0 256 -115 256 -256
s-115 -256 -256 -256s-256 115 -256 256s115 256 256 256zM256 -45c131 0 237 106 237 237s-106 237 -237 237s-237 -106 -237 -237s106 -237 237 -237z" />
    <glyph glyph-name="uniF10C" unicode="&#xf10c;" 
d="M182 199c-26 0 -47 20 -50 45h18c2 -15 16 -26 32 -26s29 11 31 26h19c-3 -25 -24 -45 -50 -45zM330 199c-26 0 -47 20 -50 45h19c2 -15 15 -26 31 -26s30 11 32 26h18c-3 -25 -24 -45 -50 -45zM256 448c141 0 256 -115 256 -256s-115 -256 -256 -256s-256 115 -256 256
s115 256 256 256zM256 -45c131 0 237 106 237 237s-106 237 -237 237s-237 -106 -237 -237s106 -237 237 -237zM259 150c125 0 156 -86 157 -90l-17 -6c-1 3 -28 77 -140 77s-142 -76 -142 -77l-17 6c1 4 34 90 159 90z" />
    <glyph glyph-name="uniF10D" unicode="&#xf10d;" 
d="M256 448c141 0 256 -115 256 -256s-115 -256 -256 -256s-256 115 -256 256s115 256 256 256zM256 -45c131 0 237 106 237 237s-106 237 -237 237s-237 -106 -237 -237s106 -237 237 -237zM366 125c19 17 24 32 24 36h18c0 -11 -7 -30 -29 -50c-28 -26 -83 -53 -184 -53
c-21 0 -44 1 -70 4l1 18c148 -16 214 22 240 45zM224 221c-1 -3 -5 -6 -9 -6h-89v19h67l-40 40l13 13l56 -56c3 -3 3 -7 2 -10zM297 215c-4 0 -8 3 -9 6s-1 7 2 10l56 56l13 -13l-40 -40h68v-19h-90z" />
    <glyph glyph-name="uniF10E" unicode="&#xf10e;" 
d="M257 49c111 0 139 100 140 104l18 -4c0 -1 -32 -119 -158 -119s-160 118 -160 119l18 5c1 -4 31 -105 142 -105zM256 448c141 0 256 -115 256 -256s-115 -256 -256 -256s-256 115 -256 256s115 256 256 256zM256 -45c131 0 237 106 237 237s-106 237 -237 237
s-237 -106 -237 -237s106 -237 237 -237zM224 221c-1 -3 -5 -6 -9 -6h-89v19h67l-40 40l13 13l56 -56c3 -3 3 -7 2 -10zM297 215c-4 0 -8 3 -9 6s-1 7 2 10l56 56l13 -13l-40 -40h68v-19h-90z" />
    <glyph glyph-name="uniF10F" unicode="&#xf10f;" 
d="M256 448c141 0 256 -115 256 -256s-115 -256 -256 -256s-256 115 -256 256s115 256 256 256zM256 -45c131 0 237 106 237 237s-106 237 -237 237s-237 -106 -237 -237s106 -237 237 -237zM256 120c-5 0 -10 5 -10 10v237c0 5 5 10 10 10s9 -5 9 -10v-237
c0 -5 -4 -10 -9 -10zM228 50c0 19 9 28 28 28s28 -9 28 -28s-9 -28 -28 -28s-28 9 -28 28z" />
    <glyph glyph-name="uniF110" unicode="&#xf110;" 
d="M256 448c141 0 256 -115 256 -256s-115 -256 -256 -256s-256 115 -256 256s115 256 256 256zM256 -45c131 0 237 106 237 237s-106 237 -237 237s-237 -106 -237 -237s106 -237 237 -237zM259 48c111 0 139 100 140 104l18 -4c0 -1 -32 -119 -158 -119s-159 118 -159 119
l18 4c1 -4 30 -104 141 -104zM186 248c-16 0 -30 -12 -32 -27h-18c3 25 24 45 50 45s47 -20 50 -45h-19c-2 15 -15 27 -31 27zM335 248c-16 0 -30 -12 -32 -27h-19c3 25 25 45 51 45s47 -20 50 -45h-19c-2 15 -15 27 -31 27z" />
    <glyph glyph-name="uniF111" unicode="&#xf111;" 
d="M494 285c11 -29 18 -60 18 -93c0 -141 -115 -256 -256 -256s-256 115 -256 256c0 33 7 64 18 93h-18v19h26c42 85 129 144 230 144s188 -59 230 -144h26v-19h-18zM256 429c-90 0 -169 -50 -209 -125h4h205h2h205h2c-40 75 -119 125 -209 125zM68 285v0
c0 -46 20 -96 77 -96c53 0 96 43 96 96v0h-173zM273 285v0c0 -53 43 -96 96 -96c57 0 77 50 77 96v0h-173zM256 -45c131 0 237 106 237 237c0 33 -7 64 -19 93h-10v0c0 -69 -37 -114 -95 -114c-55 0 -101 38 -112 90c-11 -52 -57 -90 -112 -90c-58 0 -95 45 -95 114v0h-12
c-12 -29 -19 -60 -19 -93c0 -131 106 -237 237 -237zM259 48c111 0 139 91 140 95l18 -5c0 -1 -32 -109 -158 -109c-66 0 -105 29 -127 54c-24 27 -32 54 -32 55l18 5c1 -4 30 -95 141 -95zM154 246c0 19 8 28 27 28s28 -9 28 -28s-9 -28 -28 -28s-27 9 -27 28zM302 246
c0 19 9 28 28 28s28 -9 28 -28s-9 -28 -28 -28s-28 9 -28 28z" />
    <glyph glyph-name="uniF112" unicode="&#xf112;" 
d="M256 448c141 0 256 -115 256 -256s-115 -256 -256 -256s-256 115 -256 256s115 256 256 256zM256 -45c131 0 237 106 237 237s-106 237 -237 237s-237 -106 -237 -237s106 -237 237 -237zM257 29c112 0 140 94 140 95l17 -5c0 -1 -31 -109 -157 -109
c-66 0 -106 30 -128 55c-24 27 -31 53 -31 54l17 6c1 -4 31 -96 142 -96zM107 214c8 -18 26 -28 46 -30v52c-21 0 -40 2 -51 13c-6 6 -9 14 -8 24c1 24 22 43 52 48c3 0 4 1 7 1v14h19v-14c24 -2 47 -13 55 -34l-17 -7c-5 13 -21 20 -38 22v-48c30 0 64 -1 65 -35
c1 -24 -19 -45 -51 -52c-5 -1 -9 -3 -14 -3v-16h-19v16c-27 2 -51 16 -63 42zM218 219c-1 15 -14 18 -46 18v-53c3 0 7 1 10 2c17 4 37 15 36 33zM116 262c6 -6 21 -7 37 -7v48h-4c-8 -1 -35 -8 -36 -31c0 -6 2 -9 3 -10zM358 255c30 0 64 -1 65 -35c1 -24 -19 -45 -51 -52
c-5 -1 -9 -3 -14 -3v-16h-18v16c-27 2 -52 16 -64 42l17 7c8 -18 27 -28 47 -30v52c-21 0 -41 2 -52 13c-6 6 -9 14 -8 24c1 24 22 43 52 48c3 0 5 1 8 1v14h18v-14c24 -2 47 -13 55 -34l-17 -7c-5 13 -21 20 -38 22v-48zM302 262c6 -6 22 -7 38 -7v48h-5
c-8 -1 -35 -8 -36 -31c0 -6 2 -9 3 -10zM368 186c17 4 38 15 37 33c-1 15 -15 18 -47 18v-53c3 0 7 1 10 2z" />
    <glyph glyph-name="uniF113" unicode="&#xf113;" 
d="M257 163c125 0 156 -86 157 -90l-17 -6c-1 3 -28 77 -140 77s-141 -74 -142 -77l-17 6c1 4 34 90 159 90zM150 237c0 7 3 13 7 18l-32 22l11 15l40 -27h2c15 0 28 -13 28 -28s-13 -28 -28 -28s-28 13 -28 28zM256 448c141 0 256 -115 256 -256s-115 -256 -256 -256
s-256 115 -256 256s115 256 256 256zM256 -45c131 0 237 106 237 237s-106 237 -237 237s-237 -106 -237 -237s106 -237 237 -237zM326 209c-15 0 -28 13 -28 28s13 28 28 28h2l40 27l11 -15l-32 -22c4 -5 7 -11 7 -18c0 -15 -13 -28 -28 -28z" />
    <glyph glyph-name="uniF114" unicode="&#xf114;" 
d="M256 448c141 0 256 -115 256 -256s-115 -256 -256 -256s-256 115 -256 256s115 256 256 256zM256 -45c131 0 237 106 237 237s-106 237 -237 237s-237 -106 -237 -237s106 -237 237 -237zM259 48c112 0 140 103 140 104l18 -4c0 -1 -32 -119 -158 -119s-159 118 -159 119
l18 4c1 -4 30 -104 141 -104zM186 184c-26 0 -47 20 -50 45h18c2 -15 16 -26 32 -26s29 11 31 26h19c-3 -25 -24 -45 -50 -45zM335 184c-26 0 -48 20 -51 45h19c2 -15 16 -26 32 -26s29 11 31 26h19c-3 -25 -24 -45 -50 -45z" />
    <glyph glyph-name="uniF115" unicode="&#xf115;" 
d="M256 448c141 0 256 -115 256 -256s-115 -256 -256 -256s-256 115 -256 256s115 256 256 256zM256 -45c131 0 237 106 237 237s-106 237 -237 237s-237 -106 -237 -237s106 -237 237 -237zM156 243c0 19 9 28 28 28s28 -9 28 -28s-9 -28 -28 -28s-28 9 -28 28zM259 48
c111 0 139 100 140 104l18 -4c0 -1 -32 -119 -158 -119s-159 118 -159 119l18 4c1 -4 30 -104 141 -104zM298 206v19h119v-19h-119z" />
    <glyph glyph-name="uniF116" unicode="&#xf116;" 
d="M256 448c141 0 256 -115 256 -256s-115 -256 -256 -256s-256 115 -256 256s115 256 256 256zM256 -45c131 0 237 106 237 237s-106 237 -237 237s-237 -106 -237 -237s106 -237 237 -237zM156 243c0 19 9 28 28 28s28 -9 28 -28s-9 -28 -28 -28s-28 9 -28 28zM305 243
c0 19 9 28 28 28s28 -9 28 -28s-9 -28 -28 -28s-28 9 -28 28zM259 48c111 0 139 100 140 104l18 -4c0 -1 -32 -119 -158 -119s-159 118 -159 119l18 4c1 -4 30 -104 141 -104z" />
    <glyph glyph-name="uniF117" unicode="&#xf117;" 
d="M256 448c141 0 256 -115 256 -256s-115 -256 -256 -256s-256 115 -256 256s115 256 256 256zM256 -45c131 0 237 106 237 237s-106 237 -237 237s-237 -106 -237 -237s106 -237 237 -237zM97 143l-2 12h322l-2 -12c0 -1 -32 -128 -158 -128s-160 127 -160 128zM224 221
c-1 -3 -5 -6 -9 -6h-89v19h67l-40 40l13 13l56 -56c3 -3 3 -7 2 -10zM297 215c-4 0 -8 3 -9 6s-1 7 2 10l56 56l13 -13l-40 -40h68v-19h-90z" />
    <glyph glyph-name="uniF118" unicode="&#xf118;" 
d="M256 448c141 0 256 -115 256 -256s-115 -256 -256 -256s-256 115 -256 256s115 256 256 256zM256 -45c131 0 237 106 237 237s-106 237 -237 237s-237 -106 -237 -237s106 -237 237 -237zM164 157c0 28 -80 62 -80 107c0 25 16 50 41 50c11 0 25 -5 39 -18
c12 13 24 18 35 18c24 0 45 -24 45 -50c0 -46 -79 -79 -80 -107zM110 287c-5 -6 -8 -15 -8 -23c0 -16 23 -36 41 -52c8 -7 15 -13 21 -19c6 6 13 12 20 18c19 17 41 36 41 53c0 16 -13 32 -26 32c-9 0 -16 -7 -21 -12l-13 -14l-14 12c-9 8 -18 13 -26 13c-7 0 -12 -4 -15 -8
zM395 314c24 0 44 -24 44 -50c0 -46 -79 -79 -80 -107c0 28 -80 62 -80 107c0 25 17 50 42 50c11 0 24 -5 38 -18c12 13 24 18 36 18zM380 211c19 17 41 36 41 53c0 16 -13 32 -26 32c-9 0 -17 -7 -22 -12l-12 -14l-14 12c-9 8 -18 13 -26 13c-7 0 -13 -4 -16 -8
c-5 -6 -7 -15 -7 -23c0 -16 22 -36 40 -52c8 -7 15 -13 21 -19c6 6 14 12 21 18zM97 135l-2 11h322l-2 -11c0 -1 -32 -128 -158 -128s-160 127 -160 128z" />
    <glyph glyph-name="uniF119" unicode="&#xf119;" 
d="M256 448c141 0 256 -115 256 -256s-115 -256 -256 -256s-256 115 -256 256s115 256 256 256zM256 -45c131 0 237 106 237 237s-106 237 -237 237s-237 -106 -237 -237s106 -237 237 -237zM156 243c0 19 9 28 28 28s28 -9 28 -28s-9 -28 -28 -28s-28 9 -28 28zM305 243
c0 19 9 28 28 28s28 -9 28 -28s-9 -28 -28 -28s-28 9 -28 28zM366 125c19 17 24 32 24 36h18c0 -12 -8 -32 -29 -50c-28 -26 -83 -53 -184 -53c-21 0 -44 1 -70 4l1 18c148 -16 214 22 240 45z" />
    <glyph glyph-name="uniF11A" unicode="&#xf11a;" 
d="M186 248c-16 0 -30 -12 -32 -27h-18c3 25 24 45 50 45s47 -20 50 -45h-19c-2 15 -15 27 -31 27zM335 248c-16 0 -30 -12 -32 -27h-19c3 25 25 45 51 45s47 -20 50 -45h-19c-2 15 -15 27 -31 27zM256 448c141 0 256 -115 256 -256s-115 -256 -256 -256s-256 115 -256 256
s115 256 256 256zM256 -45c131 0 237 106 237 237s-106 237 -237 237s-237 -106 -237 -237s106 -237 237 -237zM408 150c5 0 9 -4 9 -9v-3v0c0 -1 -32 -118 -158 -118s-159 117 -159 118v0c0 1 -1 2 -1 3c0 5 5 9 10 9h299z" />
    <glyph glyph-name="uniF11B" unicode="&#xf11b;" 
d="M256 448c141 0 256 -115 256 -256s-115 -256 -256 -256s-256 115 -256 256s115 256 256 256zM256 -45c131 0 237 106 237 237s-106 237 -237 237s-237 -106 -237 -237s106 -237 237 -237zM82 243c0 19 9 28 28 28s28 -9 28 -28s-9 -28 -28 -28s-28 9 -28 28zM231 243
c0 19 9 28 28 28s28 -9 28 -28s-9 -28 -28 -28s-28 9 -28 28zM135 53c0 62 45 99 272 99v-18c-254 0 -254 -51 -254 -81h-18z" />
    <glyph glyph-name="uniF11C" unicode="&#xf11c;" 
d="M256 448c141 0 256 -115 256 -256s-115 -256 -256 -256s-256 115 -256 256s115 256 256 256zM256 -45c131 0 237 106 237 237s-106 237 -237 237s-237 -106 -237 -237s106 -237 237 -237zM73 243c0 19 9 28 28 28s27 -9 27 -28s-8 -28 -27 -28s-28 9 -28 28zM222 243
c0 19 8 28 27 28s28 -9 28 -28s-9 -28 -28 -28s-27 9 -27 28zM366 125c19 17 24 32 24 36h18c0 -12 -8 -32 -29 -50c-28 -26 -83 -53 -184 -53c-21 0 -44 1 -70 4l1 18c148 -16 214 22 240 45z" />
    <glyph glyph-name="uniF11D" unicode="&#xf11d;" 
d="M256 448c141 0 256 -115 256 -256s-115 -256 -256 -256s-256 115 -256 256s115 256 256 256zM256 -45c131 0 237 106 237 237s-106 237 -237 237s-237 -106 -237 -237s106 -237 237 -237zM82 243c0 19 9 28 28 28s28 -9 28 -28s-9 -28 -28 -28s-28 9 -28 28zM231 243
c0 19 9 28 28 28s28 -9 28 -28s-9 -28 -28 -28s-28 9 -28 28zM228 162c55 0 146 -5 147 -5h12l-4 -12c0 -1 -38 -119 -155 -123v0v0c-61 0 -109 31 -109 70s48 70 109 70z" />
    <glyph glyph-name="uniF11E" unicode="&#xf11e;" 
d="M97 150l18 5c1 -4 31 -105 142 -105c21 0 38 3 53 9c2 -7 3 -13 3 -14s1 -3 1 -4c-17 -6 -35 -10 -57 -10c-126 0 -160 118 -160 119zM256 448c141 0 256 -115 256 -256c0 -21 -2 -41 -7 -60h-19c5 19 7 39 7 60c0 131 -106 237 -237 237s-237 -106 -237 -237
s106 -237 237 -237c40 0 76 10 109 27c2 -6 4 -15 5 -19c-34 -17 -73 -27 -114 -27c-141 0 -256 115 -256 256s115 256 256 256zM186 248c-16 0 -30 -12 -32 -27h-18c3 25 24 45 50 45s47 -20 50 -45h-19c-2 15 -15 27 -31 27zM366 221c-2 15 -16 27 -32 27s-29 -12 -31 -27
h-19c3 25 24 45 50 45s48 -20 51 -45h-19zM458 115c20 0 38 -21 38 -44c0 -24 -29 -49 -54 -71c-11 -9 -21 -18 -29 -27c-8 9 -19 18 -30 28c-25 22 -53 47 -53 70c0 12 3 23 10 31c4 5 12 12 23 12s23 -5 36 -17l15 -14l14 15c10 11 20 17 30 17z" />
    <glyph glyph-name="uniF11F" unicode="&#xf11f;" 
d="M133 263c0 19 9 28 28 28s28 -9 28 -28s-9 -28 -28 -28s-28 9 -28 28zM318 263c0 19 9 28 28 28s28 -9 28 -28s-9 -28 -28 -28s-28 9 -28 28zM256 448c71 0 131 -25 181 -75s75 -110 75 -181s-25 -131 -75 -181s-110 -75 -181 -75s-131 25 -181 75s-75 110 -75 181
s25 131 75 181s110 75 181 75zM256 -45c43 0 83 10 119 31s66 51 87 87s31 76 31 119c0 65 -23 122 -69 168s-103 69 -168 69s-122 -23 -168 -69s-69 -103 -69 -168s23 -122 69 -168s103 -69 168 -69zM346 331c19 0 35 -7 48 -20s20 -29 20 -48s-7 -35 -20 -48
s-29 -20 -48 -20s-35 7 -48 20s-20 29 -20 48s7 35 20 48s29 20 48 20zM346 212c14 0 26 5 36 15s15 22 15 36s-5 26 -15 36s-22 15 -36 15c-7 0 -13 -1 -19 -4s-12 -6 -17 -11s-8 -10 -11 -16s-4 -13 -4 -20c0 -14 5 -26 15 -36s22 -15 36 -15zM229 263
c0 -19 -7 -35 -20 -48s-29 -20 -48 -20c-12 0 -25 3 -35 9s-18 15 -24 25s-9 22 -9 34c0 19 7 35 20 48s29 20 48 20s35 -7 48 -20s20 -29 20 -48zM110 263c0 -14 5 -26 15 -36s22 -15 36 -15s26 5 36 15s15 22 15 36s-5 26 -15 36s-22 15 -36 15s-26 -5 -36 -15
s-15 -22 -15 -36zM358 152l9 -17l-86 -45l86 -46l-9 -16l-97 51l-96 -51l-9 16l86 46l-86 45l9 17l96 -52z" />
    <glyph glyph-name="uniF120" unicode="&#xf120;" 
d="M257 156c125 0 156 -86 157 -90l-17 -6c-1 3 -28 77 -140 77s-142 -76 -142 -77l-17 6c1 4 34 90 159 90zM256 448c141 0 256 -115 256 -256s-115 -256 -256 -256s-256 115 -256 256s115 256 256 256zM256 -45c131 0 237 106 237 237s-106 237 -237 237
s-237 -106 -237 -237s106 -237 237 -237zM224 221c-1 -3 -5 -6 -9 -6h-89v19h67l-40 40l13 13l56 -56c3 -3 3 -7 2 -10zM297 215c-4 0 -8 3 -9 6s-1 7 2 10l56 56l13 -13l-40 -40h68v-19h-90z" />
    <glyph glyph-name="uniF121" unicode="&#xf121;" 
d="M256 448c141 0 256 -115 256 -256s-115 -256 -256 -256s-256 115 -256 256s115 256 256 256zM256 -45c131 0 237 106 237 237s-106 237 -237 237s-237 -106 -237 -237s106 -237 237 -237zM279 370c35 -5 62 -28 70 -59c9 -36 -13 -59 -36 -84c-24 -26 -48 -52 -48 -98
c0 -5 -4 -9 -9 -9v0c-5 0 -10 5 -10 10c0 53 30 84 54 110c21 23 37 40 31 66c-6 24 -28 41 -55 45s-65 -5 -87 -44c-3 -4 -8 -7 -12 -4s-7 9 -4 13c22 39 64 60 106 54zM228 50c0 19 9 28 28 28s28 -9 28 -28s-9 -28 -28 -28s-28 9 -28 28z" />
    <glyph glyph-name="uniF122" unicode="&#xf122;" 
d="M186 193c-26 0 -47 21 -50 46h18c2 -15 16 -27 32 -27s29 12 31 27h19c-3 -25 -24 -46 -50 -46zM335 193c-26 0 -48 21 -51 46h19c2 -15 16 -27 32 -27s29 12 31 27h19c-3 -25 -24 -46 -50 -46zM256 448c141 0 256 -115 256 -256s-115 -256 -256 -256s-256 115 -256 256
s115 256 256 256zM256 -45c131 0 237 106 237 237s-106 237 -237 237s-237 -106 -237 -237s106 -237 237 -237zM408 150c5 0 9 -4 9 -9v-3v0c0 -1 -32 -118 -158 -118s-159 117 -159 118v0c0 1 -1 2 -1 3c0 5 5 9 10 9h299z" />
    <glyph glyph-name="uniF123" unicode="&#xf123;" 
d="M256 448c141 0 256 -115 256 -256s-115 -256 -256 -256s-256 115 -256 256s115 256 256 256zM256 -45c131 0 237 106 237 237s-106 237 -237 237s-237 -106 -237 -237s106 -237 237 -237zM156 243c0 19 9 28 28 28s28 -9 28 -28s-9 -28 -28 -28s-28 9 -28 28zM305 243
c0 19 9 28 28 28s28 -9 28 -28s-9 -28 -28 -28s-28 9 -28 28zM216 87v18h78v-18h-78z" />
    <glyph glyph-name="uniF124" unicode="&#xf124;" 
d="M256 448c141 0 256 -115 256 -256s-115 -256 -256 -256s-256 115 -256 256s115 256 256 256zM256 -45c131 0 237 106 237 237s-106 237 -237 237s-237 -106 -237 -237s106 -237 237 -237zM156 243c0 19 9 28 28 28s28 -9 28 -28s-9 -28 -28 -28s-28 9 -28 28zM305 243
c0 19 9 28 28 28s28 -9 28 -28s-9 -28 -28 -28s-28 9 -28 28zM259 150c125 0 157 -86 158 -90l-18 -6c-1 3 -28 77 -140 77s-142 -76 -142 -77l-17 6c1 4 34 90 159 90z" />
    <glyph glyph-name="uniF125" unicode="&#xf125;" 
d="M152 239c0 19 9 27 28 27s28 -8 28 -27s-9 -28 -28 -28s-28 9 -28 28zM301 239c0 19 9 27 28 27s28 -8 28 -27s-9 -28 -28 -28s-28 9 -28 28zM256 448c71 0 131 -25 181 -75s75 -110 75 -181s-25 -131 -75 -181s-110 -75 -181 -75s-131 25 -181 75s-75 110 -75 181
s25 131 75 181s110 75 181 75zM256 -45c65 0 122 23 168 69s69 103 69 168s-23 122 -69 168s-103 69 -168 69s-122 -23 -168 -69s-69 -103 -69 -168s23 -122 69 -168s103 -69 168 -69zM367 143c9 0 20 -6 34 -18c10 -8 16 -12 19 -12v-17c-7 0 -17 5 -30 16
c-11 9 -18 14 -23 14s-14 -5 -25 -14c-14 -11 -24 -17 -32 -17s-18 6 -31 16s-22 15 -28 15s-15 -5 -26 -15s-21 -16 -28 -16s-15 5 -24 15c-10 10 -18 16 -26 16c-7 0 -15 -5 -24 -15s-18 -16 -25 -16v17c2 0 6 4 12 10c12 14 25 21 37 21s25 -7 38 -21c6 -6 10 -10 12 -10
s8 4 16 11c15 13 28 20 38 20s22 -7 38 -19c10 -8 17 -12 21 -12s11 4 22 13c15 12 26 18 35 18z" />
    <glyph glyph-name="uniF126" unicode="&#xf126;" 
d="M256 448c141 0 256 -115 256 -256s-115 -256 -256 -256s-256 115 -256 256s115 256 256 256zM256 -45c131 0 237 106 237 237s-106 237 -237 237s-237 -106 -237 -237s106 -237 237 -237zM156 243c0 19 9 28 28 28s28 -9 28 -28s-9 -28 -28 -28s-28 9 -28 28zM305 243
c0 19 9 28 28 28s28 -9 28 -28s-9 -28 -28 -28s-28 9 -28 28zM390 129c11 -4 22 -12 27 -27c4 -13 2 -27 -6 -39c-12 -18 -35 -30 -59 -31h-3c-32 0 -67 26 -77 35c-24 -5 -53 -9 -86 -9c-19 0 -39 2 -61 4l1 18c135 -14 206 21 241 53c24 22 32 42 32 47h19
c0 -11 -10 -32 -28 -51zM396 73c3 5 6 14 3 23c-5 15 -19 17 -26 17c-18 -15 -44 -30 -79 -40c15 -11 39 -24 57 -23s36 10 45 23z" />
    <glyph glyph-name="uniF127" unicode="&#xf127;" 
d="M256 448c141 0 256 -115 256 -256s-115 -256 -256 -256s-256 115 -256 256s115 256 256 256zM256 -45c131 0 237 106 237 237s-106 237 -237 237s-237 -106 -237 -237s106 -237 237 -237zM305 243c0 19 9 28 28 28s28 -9 28 -28s-9 -28 -28 -28s-28 9 -28 28zM366 125
c19 17 24 32 24 36h18c0 -12 -8 -32 -29 -50c-28 -26 -83 -53 -184 -53c-21 0 -44 1 -70 4l1 18c148 -16 214 22 240 45zM109 195v18h119v-18h-119z" />
    <glyph glyph-name="uniF128" unicode="&#xf128;" 
d="M374 143c19 17 24 33 24 37h18c0 -12 -8 -33 -29 -51c-28 -26 -83 -53 -184 -53c-21 0 -44 1 -70 4l2 19c148 -16 213 21 239 44zM150 237c0 7 3 13 7 18l-32 22l11 15l40 -27h2c15 0 28 -13 28 -28s-13 -28 -28 -28s-28 13 -28 28zM256 448c141 0 256 -115 256 -256
s-115 -256 -256 -256s-256 115 -256 256s115 256 256 256zM256 -45c131 0 237 106 237 237s-106 237 -237 237s-237 -106 -237 -237s106 -237 237 -237zM326 209c-15 0 -28 13 -28 28s13 28 28 28h2l40 27l11 -15l-32 -22c4 -5 7 -11 7 -18c0 -15 -13 -28 -28 -28z" />
    <glyph glyph-name="uniF129" unicode="&#xf129;" 
d="M256 448c141 0 256 -115 256 -256s-115 -256 -256 -256s-256 115 -256 256s115 256 256 256zM256 -45c131 0 237 106 237 237s-106 237 -237 237s-237 -106 -237 -237s106 -237 237 -237zM156 243c0 19 9 28 28 28s28 -9 28 -28s-9 -28 -28 -28s-28 9 -28 28zM305 243
c0 19 9 28 28 28s28 -9 28 -28s-9 -28 -28 -28s-28 9 -28 28zM119 90v19h274v-19h-274z" />
    <glyph glyph-name="uniF12A" unicode="&#xf12a;" 
d="M133 263c0 19 9 28 28 28s28 -9 28 -28s-9 -28 -28 -28s-28 9 -28 28zM318 263c0 19 9 28 28 28s28 -9 28 -28s-9 -28 -28 -28s-28 9 -28 28zM259 162c31 0 56 -7 77 -20s32 -30 32 -50s-11 -36 -32 -49s-46 -20 -77 -20s-56 7 -77 20s-32 29 -32 49s11 37 32 50
s46 20 77 20zM256 448c46 0 90 -11 129 -34s70 -54 93 -93s34 -83 34 -129c0 -71 -25 -131 -75 -181s-110 -75 -181 -75c-46 0 -90 11 -129 34s-70 54 -93 93s-34 83 -34 129c0 71 25 131 75 181s110 75 181 75zM256 -45c65 0 122 23 168 69s69 103 69 168s-23 122 -69 168
s-103 69 -168 69c-43 0 -83 -10 -119 -31s-66 -51 -87 -87s-31 -76 -31 -119c0 -65 23 -122 69 -168s103 -69 168 -69zM346 331c19 0 35 -7 48 -20s20 -29 20 -48s-7 -35 -20 -48s-29 -20 -48 -20s-35 7 -48 20s-20 29 -20 48s7 35 20 48s29 20 48 20zM346 212
c14 0 26 5 36 15s15 22 15 36s-5 26 -15 36s-22 15 -36 15c-9 0 -17 -2 -25 -7s-14 -10 -19 -18s-7 -17 -7 -26c0 -14 5 -26 15 -36s22 -15 36 -15zM229 263c0 -19 -7 -35 -20 -48s-29 -20 -48 -20s-35 7 -48 20s-20 29 -20 48s7 35 20 48s29 20 48 20s35 -7 48 -20
s20 -29 20 -48zM110 263c0 -14 5 -26 15 -36s22 -15 36 -15s26 5 36 15s15 22 15 36c0 6 -1 11 -3 16s-4 10 -7 14s-7 8 -11 11s-9 5 -14 7s-10 3 -16 3c-14 0 -26 -5 -36 -15s-15 -22 -15 -36z" />
    <glyph glyph-name="uniF12B" unicode="&#xf12b;" 
d="M497 223c6 -5 18 -16 13 -43c-5 -32 -18 -39 -34 -45l-3 -1c-4 -2 -17 -6 -83 -6h-48c0 -13 13 -39 21 -54c4 -7 7 -14 9 -19c14 -34 11 -76 -7 -99c-9 -11 -21 -18 -35 -18c-17 0 -38 10 -39 24c-5 72 -15 80 -32 93l-4 3c-12 10 -50 49 -57 67c-5 14 -10 26 -14 36
c-19 49 -22 57 -28 57h-17c0 -1 1 -2 1 -3c0 -5 -5 -10 -10 -10h-120c-5 0 -10 5 -10 10v207c0 5 5 10 10 10h120c5 0 9 -4 10 -8l103 18c1 0 61 6 112 6c31 0 53 -2 66 -6c29 -9 46 -23 49 -43c2 -12 2 -19 2 -23s-1 -4 0 -5s4 -3 6 -4c8 -5 20 -13 23 -36
c3 -21 -3 -29 -9 -36v-1v0c7 -4 19 -11 20 -34c1 -22 -9 -31 -15 -36l-1 -1h1z" />
    <glyph glyph-name="uniF12C" unicode="&#xf12c;" 
d="M497 223c6 -5 17 -16 13 -43c-5 -32 -18 -39 -34 -45l-3 -1c-4 -2 -16 -6 -82 -6h-49c0 -13 13 -39 21 -54c4 -7 7 -14 9 -19c14 -34 11 -76 -7 -99c-9 -11 -21 -18 -35 -18c-17 0 -38 10 -39 24c-5 72 -15 80 -32 93l-4 3c-12 9 -50 49 -57 67c-5 14 -10 25 -14 35
c-19 50 -22 58 -28 58h-17c0 -1 1 -2 1 -3c0 -5 -5 -10 -10 -10h-120c-5 0 -10 5 -10 10v207c0 5 5 10 10 10h120c5 0 9 -4 10 -8l103 18c1 0 61 6 112 6c31 0 53 -2 66 -6c29 -9 46 -23 49 -43c2 -12 2 -19 2 -23s-1 -4 0 -5s4 -3 6 -4c8 -5 20 -13 23 -36
c2 -21 -3 -29 -9 -36v-1v0c7 -4 19 -11 20 -34c1 -22 -9 -31 -15 -36l-1 -1h1zM125 225c0 1 -1 2 -1 3v184h-104v-187h105zM476 220c-1 9 4 14 8 18c5 4 8 8 8 21c0 12 -5 15 -10 18c-4 2 -10 6 -11 15c-1 8 3 12 6 15c3 4 6 7 4 21s-7 18 -14 22c-4 3 -9 6 -12 12
s-3 10 -3 14s1 10 -1 20c-2 15 -20 23 -35 27c-8 2 -25 5 -61 5c-50 0 -109 -5 -110 -5l-101 -18v-167h12c19 0 23 -10 47 -71c4 -10 9 -21 14 -35c5 -12 37 -49 50 -59l4 -2c22 -17 35 -30 40 -106c2 -2 10 -7 19 -7c8 0 15 4 20 10c13 17 15 53 4 80c-2 4 -5 11 -9 18
c-13 26 -30 58 -19 77c2 3 5 5 9 5c0 0 27 -1 56 -1c56 0 70 4 74 5l4 2c11 4 17 7 21 30c3 16 -1 20 -6 24c-3 3 -7 6 -8 12z" />
    <glyph glyph-name="uniF12D" unicode="&#xf12d;" 
d="M492 92v0c6 -7 12 -15 9 -36c-3 -23 -15 -31 -23 -36c-2 -1 -5 -3 -6 -4s0 -1 0 -5s0 -11 -2 -23c-2 -14 -13 -33 -49 -44c-15 -4 -40 -6 -67 -6c-51 0 -106 6 -110 6l-104 18c-1 -4 -5 -8 -10 -8h-120c-5 0 -10 5 -10 10v207c0 5 5 10 10 10h120c5 0 10 -5 10 -10v-2h16
c6 0 9 7 29 59c4 10 8 21 13 34c7 17 45 58 57 67l4 2c17 13 27 21 32 93c1 9 9 18 23 22c15 5 37 3 51 -15c18 -23 21 -66 7 -100c-2 -5 -5 -12 -9 -19c-8 -15 -21 -41 -21 -54c27 1 110 2 131 -6l3 -1c16 -6 29 -13 34 -45c5 -27 -7 -37 -13 -42h-1l1 -1
c6 -5 16 -14 15 -36c-1 -23 -13 -31 -20 -35v0z" />
    <glyph glyph-name="uniF12E" unicode="&#xf12e;" 
d="M492 92v0c6 -7 11 -15 9 -36c-3 -23 -16 -31 -24 -36c-2 -1 -4 -3 -5 -4s0 -1 0 -5s0 -11 -2 -23c-3 -20 -20 -35 -49 -44c-15 -4 -40 -6 -67 -6c-51 0 -106 6 -110 6l-104 18c-1 -4 -5 -8 -10 -8h-120c-5 0 -10 5 -10 10v207c0 5 5 10 10 10h120c5 0 10 -5 10 -10v-2h16
c6 0 9 8 29 60c4 10 8 20 13 33c7 17 45 58 57 67l4 2c17 13 27 21 32 93c1 9 10 18 24 22c15 5 36 3 50 -15c18 -23 21 -66 7 -100c-2 -5 -5 -12 -9 -19c-8 -15 -21 -41 -21 -54c27 1 110 2 131 -6l3 -1c16 -6 29 -13 34 -45c5 -27 -7 -37 -13 -42h-1l1 -1
c6 -5 16 -14 15 -36c-1 -23 -13 -31 -20 -35v0zM120 -26v187h-100v-187h100zM482 110c5 3 10 5 10 17c0 13 -4 17 -8 21s-9 9 -8 18c1 6 5 10 8 13c5 4 9 8 6 24c-4 23 -10 26 -21 30l-4 1c-15 6 -88 6 -130 4c-4 0 -7 2 -9 5c-11 19 6 52 19 78c4 7 7 13 9 17
c11 27 9 64 -4 81c-7 9 -16 9 -22 9c-9 -1 -15 -4 -17 -6c-5 -76 -18 -89 -40 -106l-4 -3c-13 -10 -45 -46 -50 -58c-5 -13 -10 -23 -14 -33c-24 -63 -27 -73 -47 -73h-16v-167l106 -19c1 0 131 -12 170 0c15 4 32 13 34 28c2 10 2 15 2 19s0 9 3 15s8 8 12 11
c7 4 12 8 14 22s-1 17 -4 21c-3 3 -7 8 -6 16c1 9 7 13 11 15z" />
    <glyph glyph-name="uniF12F" unicode="&#xf12f;" 
d="M256 448c141 0 256 -115 256 -256s-115 -256 -256 -256s-256 115 -256 256s115 256 256 256zM256 -45c131 0 237 106 237 237s-106 237 -237 237s-237 -106 -237 -237s106 -237 237 -237zM181 253c-16 0 -29 -12 -31 -27h-19c3 25 24 45 50 45s47 -20 50 -45h-19
c-2 15 -15 27 -31 27zM330 271c26 0 47 -20 50 -45h-19c-2 15 -15 27 -31 27s-29 -12 -31 -27h-19c3 25 24 45 50 45zM257 171c61 0 109 -30 109 -69s-48 -70 -109 -70s-109 31 -109 70s48 69 109 69z" />
    <glyph glyph-name="uniF130" unicode="&#xf130;" 
d="M256 448c141 0 256 -115 256 -256s-115 -256 -256 -256s-256 115 -256 256s115 256 256 256zM256 -45c131 0 237 106 237 237s-106 237 -237 237s-237 -106 -237 -237s106 -237 237 -237zM186 266c26 0 47 -20 50 -45h-19c-2 15 -15 27 -31 27s-30 -12 -32 -27h-18
c3 25 24 45 50 45zM334 266c26 0 48 -20 51 -45h-19c-2 15 -16 27 -32 27s-29 -12 -31 -27h-19c3 25 24 45 50 45zM228 92c0 19 9 27 28 27s28 -8 28 -27s-9 -28 -28 -28s-28 9 -28 28z" />
    <glyph glyph-name="uniF131" unicode="&#xf131;" 
d="M256 448c141 0 256 -115 256 -256s-115 -256 -256 -256s-256 115 -256 256s115 256 256 256zM256 -45c131 0 237 106 237 237s-106 237 -237 237s-237 -106 -237 -237s106 -237 237 -237zM137 228v18h82v-18h-82zM286 228v18h82v-18h-82zM251 163c61 0 109 -30 109 -69
s-48 -70 -109 -70s-108 31 -108 70s47 69 108 69z" />
    <glyph glyph-name="uniF132" unicode="&#xf132;" 
d="M256 154c55 0 100 -27 100 -60s-45 -61 -100 -61s-100 28 -100 61s45 60 100 60zM256 448c141 0 256 -115 256 -256s-115 -256 -256 -256s-256 115 -256 256s115 256 256 256zM256 -45c131 0 237 106 237 237s-106 237 -237 237s-237 -106 -237 -237s106 -237 237 -237z
M224 221c-1 -3 -5 -6 -9 -6h-89v19h67l-40 40l13 13l56 -56c3 -3 3 -7 2 -10zM359 274l-40 -40h68v-19h-90c-4 0 -8 3 -9 6s-1 7 2 10l56 56z" />
    <glyph glyph-name="uniF133" unicode="&#xf133;" 
d="M178 209c-15 0 -28 13 -28 28c0 7 3 13 7 18l-32 22l11 15l40 -27h2c15 0 28 -13 28 -28s-13 -28 -28 -28zM256 162c55 0 100 -27 100 -60s-45 -61 -100 -61s-100 28 -100 61s45 60 100 60zM256 448c141 0 256 -115 256 -256s-115 -256 -256 -256s-256 115 -256 256
s115 256 256 256zM256 -45c131 0 237 106 237 237s-106 237 -237 237s-237 -106 -237 -237s106 -237 237 -237zM328 265l40 27l11 -15l-32 -22c4 -5 7 -11 7 -18c0 -15 -13 -28 -28 -28s-28 13 -28 28s13 28 28 28h2z" />
  </font>
</defs>
</svg>
